Download Area!

Click Now! Download Free Music !

Music Movies Games
Пароль:
RSS SITEMAP.XML

It's interesting

It's interesting!

Click Now!
-


Start Download Now Torrent Direct Start Download Now Rapid Start Download Now
Lamont Dozier - Peddlin' Music On The Side (1977) {2001 Sanctuary CD}

Lamont Dozier - Peddlin' Music On The Side (1977) {2001 Sanctuary CD}
EAC Rip | FLAC with CUE and log | scans | 296 mb
MP3 CBR 320kbps | RAR | 108 mb
Genre: R&B, soul

Peddlin' Music On The Side is the 1977 album by singer/songwriter Lamont Dozier. Originally released by Warner Bros., this CD was released by Sanctuary/Castle on 29 January, 2001.
For his second Warner Bros. LP, Peddlin' Music on the Side, Motown veteran Lamont Dozier turns the production reigns over to Stewart Levine (The Crusaders, Minnie Riperton's Adventures in Paradise, Hugh Masekela). Pianist Joe Sample & bassist Wilton Felder of The Crusaders are on hand to make stellar contributions, giving Dozier his most jazz flavored album. As usual with a Lamont Dozier album, you have the top musicians, singers, arrangers, and engineering staff involved. The propulsive album opener, "Sight for Sore Eyes," opens with a striking string and horn arrangement. For the chugging, low key "What Am I Gonna Do 'bout You (Girl)" Dozier slyly caresses the lyric in a manner that suggests that he thinks that "his bad girl is good." "Break the Ice" bops along on thumping bass and soft conga. The inspiring "Tear Down the Walls" has lyrics that admonish: "there's no hope unless we change within/ let protect our let's be friends/ peace on earth and harmony/ it could be a reality/ it's up to you and me/ tear down the walls." The Afro-centric disco hit "Going Back to My Roots" was co-arranged by Hugh Masekela and has a message that most can relate to: "zipping up my boots/ going back to my roots/ to the place of my birth/ back down to earth/ ain't talkin' 'bout no roots in the land/ talkin' 'bout the roots in the man." The 12" version of "Going Back to My Roots" is a collectible and the song was a 1981 disco hit for RCA Records group Odyssey ("Native New Yorker"). The heart-tugging, dramatically arranged "Family" paints a picture of the family under attack. The warm-toned ballad "Peddlin' Music on the Side" lists the travails of trying to make it in the music business. This album stands as one of Lamont Dozier's finest works.


Lamont Dozier - Peddlin' Music On The Side (1977) {2001 Sanctuary CD}

1. Sight For Sore Eyes
2. What Am I Gonna Do 'Bout You (Girl) (The Coke Song)
3. Break The Ice
4. Tear Down The Walls
5. Going Back To My Roots
6. Family
7. Peddlin' Music On The Side
--
Lamont Dozier-vocals
Joe Sample-acoustic piano
Wilton Felder-bass
James Gadson-drums
Ronnie Coleman-electric piano
Arthur Adams-guitar
Ray Parker, Jr.-guitar
David T. Walker-guitar
Steve Beckmeyer-guitar
Roland Bautista-guitar
Paulinho de Costa-percussion
Bill Summers-percussion
Mike Boddicker-synthesizer
Waters-vocal background

Tracks 1, 2 & 6 arranged by Sonny Burke
Track 3:
Rhythm arranged by McKinley Jackson
Strings and horns arranged by H.B. Barnum
Track 4:
Rhythm arranged by Hugh Masekela and McKinley Jackson
African vocal arrangement by O.J. Ekemodo
Track 5:
Rhythm arranged by Ronnie Coleman
Strings and horns arranged by Joe Sample

Produced by Stewart Levine
Engineered and mixed by Rik Pakkoran
Recorded at Hollywood Recorders
Original LP mastered by Bernie Grundman


Lamont Dozier - Peddlin' Music On The Side (1977) {2001 Sanctuary CD}


EAC Log


EAC extraction logfile from 25. January 2007, 5:51 for CD
Lamont Dozier / Peddlin' Music On The Side

Used drive : LITE-ON DVDRW SOHW-1633S Adapter: 0 ID: 0
Read mode : Secure with NO C2, accurate stream, disable cache
Read offset correction : 12
Overread into Lead-In and Lead-Out : No

Used output format : Internal WAV Routines
44.100 Hz; 16 Bit; Stereo

Other options :
Fill up missing offset samples with silence : Yes
Delete leading and trailing silent blocks : No
Installed external ASPI interface

Track 1
Filename D:\FLAC\Lamont Dozier - Peddlin' Music On The Side (1977) [FLAC] {2001 Sanctuary CD}\01 - Sight For Sore Eyes.wav

Pre-gap length 0:00:02.00

Peak level 95.2 %
Track quality 99.9 %
Test CRC BC84F574
Copy CRC BC84F574
Copy OK

Track 2
Filename D:\FLAC\Lamont Dozier - Peddlin' Music On The Side (1977) [FLAC] {2001 Sanctuary CD}\02 - What Am I Gonna Do 'Bout You (Girl) (The Coke Song).wav

Pre-gap length 0:00:02.64

Peak level 97.7 %
Track quality 100.0 %
Test CRC D4D79BC7
Copy CRC D4D79BC7
Copy OK

Track 3
Filename D:\FLAC\Lamont Dozier - Peddlin' Music On The Side (1977) [FLAC] {2001 Sanctuary CD}\03 - Break The Ice.wav

Pre-gap length 0:00:02.62

Peak level 97.7 %
Track quality 99.9 %
Test CRC DADAE8C4
Copy CRC DADAE8C4
Copy OK

Track 4
Filename D:\FLAC\Lamont Dozier - Peddlin' Music On The Side (1977) [FLAC] {2001 Sanctuary CD}\04 - Tear Down The Walls.wav

Pre-gap length 0:00:02.64

Peak level 95.0 %
Track quality 100.0 %
Test CRC 4E1552D0
Copy CRC 4E1552D0
Copy OK

Track 5
Filename D:\FLAC\Lamont Dozier - Peddlin' Music On The Side (1977) [FLAC] {2001 Sanctuary CD}\05 - Going Back To My Roots.wav

Pre-gap length 0:00:02.62

Peak level 95.2 %
Track quality 100.0 %
Test CRC AA778C47
Copy CRC AA778C47
Copy OK

Track 6
Filename D:\FLAC\Lamont Dozier - Peddlin' Music On The Side (1977) [FLAC] {2001 Sanctuary CD}\06 - Family.wav

Pre-gap length 0:00:02.62

Peak level 97.4 %
Track quality 99.9 %
Test CRC 8E2FF92B
Copy CRC 8E2FF92B
Copy OK

Track 7
Filename D:\FLAC\Lamont Dozier - Peddlin' Music On The Side (1977) [FLAC] {2001 Sanctuary CD}\07 - Peddlin' Music On The Side.wav

Pre-gap length 0:00:02.62

Peak level 95.2 %
Track quality 100.0 %
Test CRC 0E82F3EB
Copy CRC 0E82F3EB
Copy OK

No errors occured

End of status report
Download link:



Links are Interchangeable - No Password - Single Extraction

Digg This



Below you can post Comment about Free download Lamont Dozier - Peddlin' Music On The Side (1977) {2001 Sanctuary CD}, full download Lamont Dozier - Peddlin' Music On The Side (1977) {2001 Sanctuary CD} free from rapidshare, filesonic, fileserve, megaupload, mediafire, hotfile, ftp, direct download. Lamont Dozier - Peddlin' Music On The Side (1977) {2001 Sanctuary CD} Torrent Download or anything related to the article here. Only English is allowed.
Author: upload113 11-06-2016, 10:06 Comments: 0 Download: 796
Back Print

It's interesting!

Click Now!

It's interesting!

Visitors

Who is online:  users
download:  users
speed:  kb/s

Search cheap airfares!