Download Area!

Click Now! Download Free Music !

Music Movies Games
Пароль:
RSS SITEMAP.XML

It's interesting

It's interesting!

Click Now!
-
HashFlare

Start Download Now Torrent Direct Start Download Now Rapid Start Download Now
Jimmy Giuffre - Free Fall (1962) {1998 Legacy Columbia}

Jimmy Giuffre - Free Fall (1962) {1998 Legacy Columbia}
EAC Rip | FLAC with CUE and log | scans | 283 mb
MP3 CBR 320kbps | RAR | 142 mb
Genre: jazz, free jazz, avant-garde jazz

Free Fall is the 1962 album by Jimmy Giuffre. Originally released by Columbia, it remains on Columbia today! This was remastered for the Legacy Columbia chapter of their vaults in 1998 by Mark Wilder.
Jimmy Giuffre - Free Fall (1962) {1998 Legacy Columbia}

1. Propulsion (3:07)
2. Threewe (4:11)
3. Ornothoids (2:43)
4. Dichotomy (3:57)
5. Man Alone (2:18)
6. Spasmodic (3:27)
7. Yggdrasill (2:32)
8. Divided Man (1:53)
9. Primordial Call (2:17)
10. The Five Ways (10:19)
11. Present Notion (3:41)
12. Motion Suspended (3:16)
13. Future Plans (3:56)
14. Past Mistakes (2:05)
15. Time Will Tell (3:49)
16. Let's See (3:26)

Jimmy Giuffre-clarinet
Paul Bley-piano (tracks 2, 6, 10, 12)
Steve Swallow-double bass (tracks 2, 4, 6, 8, 10, 12)

Produced by Teo Macero
Engineered by Fred Plaut

Original 1962 liner notes by Jimmy Giuffre
1998 reissue liner notes by Steve Swallow
Remixed and remastered by Mark Wilder


Jimmy Giuffre - Free Fall (1962) {1998 Legacy Columbia}


EAC Log


EAC extraction logfile from 28. October 2007, 22:12 for CD
Giuffre, Jimmy / Free Fall (1962) [FLAC] {1998 Legacy Columbia}

Used drive : HL-DT-STCDRW/DVD GCC4482 Adapter: 1 ID: 0
Read mode : Secure with NO C2, accurate stream, disable cache
Read offset correction : 6
Overread into Lead-In and Lead-Out : No

Used output format : F:\Eac\Codecs\flac.exe (User Defined Encoder)
320 kBit/s
Additional command line options : -8 -V -T "artist=%a" -T "title=%t" -T "album=%g" -T "date=%y" -T "tracknumber=%n" -T "genre=%m" -T "comment=EAC Flac 1.1.2 -8" %s

Other options :
Fill up missing offset samples with silence : Yes
Delete leading and trailing silent blocks : No
Installed external ASPI interface

Track 1
Filename F:\Documents and Settings\Jimmy Giuffre - Free Fall (1962) [FLAC] {1998 Legacy Columbia}\01 - Propulsion.wav

Pre-gap length 0:00:02.00

Peak level 77.9 %
Track quality 100.0 %
Test CRC 58B162FC
Copy CRC 58B162FC
Copy OK

Track 2
Filename F:\Documents and Settings\Jimmy Giuffre - Free Fall (1962) [FLAC] {1998 Legacy Columbia}\02 - Threewe.wav

Pre-gap length 0:00:01.26

Peak level 100.0 %
Track quality 100.0 %
Test CRC 2D1CEADF
Copy CRC 2D1CEADF
Copy OK

Track 3
Filename F:\Documents and Settings\Jimmy Giuffre - Free Fall (1962) [FLAC] {1998 Legacy Columbia}\03 - Ornothoids.wav

Pre-gap length 0:00:02.40

Peak level 89.8 %
Track quality 100.0 %
Test CRC 21DDB7B6
Copy CRC 21DDB7B6
Copy OK

Track 4
Filename F:\Documents and Settings\Jimmy Giuffre - Free Fall (1962) [FLAC] {1998 Legacy Columbia}\04 - Dichotomy.wav

Pre-gap length 0:00:03.42

Peak level 65.5 %
Track quality 100.0 %
Test CRC 3BD90D9D
Copy CRC 3BD90D9D
Copy OK

Track 5
Filename F:\Documents and Settings\Jimmy Giuffre - Free Fall (1962) [FLAC] {1998 Legacy Columbia}\05 - Man Alone.wav

Pre-gap length 0:00:03.53

Peak level 38.5 %
Track quality 100.0 %
Test CRC D44D0704
Copy CRC D44D0704
Copy OK

Track 6
Filename F:\Documents and Settings\Jimmy Giuffre - Free Fall (1962) [FLAC] {1998 Legacy Columbia}\06 - Spasmodic.wav

Pre-gap length 0:00:02.13

Peak level 91.2 %
Track quality 100.0 %
Test CRC 51CD3AB2
Copy CRC 51CD3AB2
Copy OK

Track 7
Filename F:\Documents and Settings\Jimmy Giuffre - Free Fall (1962) [FLAC] {1998 Legacy Columbia}\07 - Yggdrasill.wav

Pre-gap length 0:00:02.82

Peak level 66.2 %
Track quality 99.9 %
Test CRC 9AAE1568
Copy CRC 9AAE1568
Copy OK

Track 8
Filename F:\Documents and Settings\Jimmy Giuffre - Free Fall (1962) [FLAC] {1998 Legacy Columbia}\08 - Divided Man.wav

Pre-gap length 0:00:02.02

Peak level 58.6 %
Track quality 100.0 %
Test CRC A7763B1E
Copy CRC A7763B1E
Copy OK

Track 9
Filename F:\Documents and Settings\Jimmy Giuffre - Free Fall (1962) [FLAC] {1998 Legacy Columbia}\09 - Primordial Call.wav

Pre-gap length 0:00:02.49

Peak level 75.7 %
Track quality 100.0 %
Test CRC B9787367
Copy CRC B9787367
Copy OK

Track 10
Filename F:\Documents and Settings\Jimmy Giuffre - Free Fall (1962) [FLAC] {1998 Legacy Columbia}\10 - The Five Ways.wav

Pre-gap length 0:00:04.16

Peak level 100.0 %
Track quality 100.0 %
Test CRC DE5E231D
Copy CRC DE5E231D
Copy OK

Track 11
Filename F:\Documents and Settings\Jimmy Giuffre - Free Fall (1962) [FLAC] {1998 Legacy Columbia}\11 - Present Notion.wav

Pre-gap length 0:00:03.13

Peak level 60.6 %
Track quality 100.0 %
Test CRC 7B6AD9EA
Copy CRC 7B6AD9EA
Copy OK

Track 12
Filename F:\Documents and Settings\Jimmy Giuffre - Free Fall (1962) [FLAC] {1998 Legacy Columbia}\12 - Motion Suspended.wav

Pre-gap length 0:00:04.06

Peak level 94.2 %
Track quality 100.0 %
Test CRC F3120C22
Copy CRC F3120C22
Copy OK

Track 13
Filename F:\Documents and Settings\Jimmy Giuffre - Free Fall (1962) [FLAC] {1998 Legacy Columbia}\13 - Future Plans.wav

Pre-gap length 0:00:02.44

Peak level 41.5 %
Track quality 100.0 %
Test CRC 377B1FDE
Copy CRC 377B1FDE
Copy OK

Track 14
Filename F:\Documents and Settings\Jimmy Giuffre - Free Fall (1962) [FLAC] {1998 Legacy Columbia}\14 - Past Mistakes.wav

Pre-gap length 0:00:02.33

Peak level 40.8 %
Track quality 100.0 %
Test CRC D04D1D89
Copy CRC D04D1D89
Copy OK

Track 15
Filename F:\Documents and Settings\Jimmy Giuffre - Free Fall (1962) [FLAC] {1998 Legacy Columbia}\15 - Time Will Tell.wav

Pre-gap length 0:00:01.84

Peak level 28.8 %
Track quality 100.0 %
Test CRC 736E5645
Copy CRC 736E5645
Copy OK

Track 16
Filename F:\Documents and Settings\Jimmy Giuffre - Free Fall (1962) [FLAC] {1998 Legacy Columbia}\16 - Let's See.wav

Pre-gap length 0:00:02.20

Peak level 100.0 %
Track quality 100.0 %
Test CRC D60F8904
Copy CRC D60F8904
Copy OK

No errors occured

End of status report
Download link:



Links are Interchangeable - No Password - Single Extraction

Digg This



Below you can post Comment about Free download Jimmy Giuffre - Free Fall (1962) {1998 Legacy Columbia}, full download Jimmy Giuffre - Free Fall (1962) {1998 Legacy Columbia} free from rapidshare, filesonic, fileserve, megaupload, mediafire, hotfile, ftp, direct download. Jimmy Giuffre - Free Fall (1962) {1998 Legacy Columbia} Torrent Download or anything related to the article here. Only English is allowed.
Tags: Jimmy, Giuffre, Free, Fall, 1962
Author: upload113 2-06-2016, 21:33 Comments: 0 Download: 671
Back Print

It's interesting!

It's interesting!

Visitors

Who is online:  users
download:  users
speed:  kb/s

Search cheap airfares!