Download Area!
hot girl striptease sexy nude poledance desktop stripper

Click Now! Download Free Music !

Music Movies Games
Пароль:
RSS SITEMAP.XML

It's interesting

It's interesting!

Click Now!
Start Download Now Torrent Direct Start Download Now Rapid Start Download Now
John Coltrane - A Love Supreme (1965) Remastered Reissue 1995

John Coltrane - A Love Supreme (1965) Remastered 1995
EAC | FLAC | Tracks (Cue&Log) ~ 213 Mb (incl 5%) | Mp3 (CBR320) ~ 79 Mb (incl 5%) | Scans ~ 86 Mb
Avant-Garde Jazz, Free Jazz, Modal, Post-Bop | Label: Impulse! | # IMP 11552 | Time: 00:33:04

One of the most important records ever made, John Coltrane's A Love Supreme was his pinnacle studio outing, that at once compiled all of the innovations from his past, spoke to the current of deep spirituality that liberated him from addictions to drugs and alcohol, and glimpsed at the future innovations of his final two and a half years. Recorded over two days in December 1964, Trane's classic quartet-Elvin Jones, McCoy Tyner, and Jimmy Garrison- stepped into the studio and created one of the most the most thought-provoking, concise, and technically pleasing albums of their bountiful relationship. From the undulatory (and classic) bassline at the intro to the last breathy notes, Trane is at the peak of his logical and emotionally varied soloing, while the rest of the group is completely atttuned to his spiritual vibe.

Tracklist:

01. Part 1 - Acknowledgement (07:47)
02. Part 2 - Resolution (07:25)
03. Part 3 - Pursuance, Part 4 - Psalm (17:50)


EAC log


Exact Audio Copy V1.0 beta 4 from 7. December 2014

EAC extraction logfile from 5. April 2016, 22:22

John Coltrane / A Love Supreme

Used drive : TSSTcorpCDDVDW SH-224DB Adapter: 1 ID: 0

Read mode : Secure
Utilize accurate stream : Yes
Defeat audio cache : Yes
Make use of C2 pointers : No

Read offset correction : 6
Overread into Lead-In and Lead-Out : No
Fill up missing offset samples with silence : Yes
Delete leading and trailing silent blocks : No
Null samples used in CRC calculations : Yes
Used interface : Native Win32 interface for Win NT & 2000
Gap handling : Appended to previous track

Used output format : User Defined Encoder
Selected bitrate : 896 kBit/s
Quality : High
Add ID3 tag : No
Command line compressor : C:\Program Files\Exact Audio Copy\Flac\flac.exe
Additional command line options : -6 -V -T "ARTIST=%artist%" -T "TITLE=%title%" -T "ALBUM=%albumtitle%" -T "DATE=%year%" -T "TRACKNUMBER=%tracknr%" -T "GENRE=%genre%" -T "COMMENT=%comment%" %source% -o %dest%

TOC of the extracted CD

Track | Start | Length | Start sector | End sector
-----------------------------
1 | 0:00.32 | 7:47.68 | 32 | 35124
2 | 7:48.25 | 7:25.42 | 35125 | 68541
3 | 15:13.67 | 17:50.73 | 68542 | 148864

Track 1

Filename C:\New Folder\01 - Part 1 - Acknowledgement.wav

Pre-gap length 0:00:02.32

Peak level 88.1 %
Extraction speed 1.9 X
Track quality 100.0 %
Test CRC 5E4EE391
Copy CRC 5E4EE391
Accurately ripped (confidence 87) [4E329502] (AR v2)
Copy OK

Track 2

Filename C:\New Folder\02 - Part 2 - Resolution.wav

Peak level 100.0 %
Extraction speed 2.2 X
Track quality 100.0 %
Test CRC BF6CBAEC
Copy CRC BF6CBAEC
Accurately ripped (confidence 87) [390CFF2F] (AR v2)
Copy OK

Track 3

Filename C:\New Folder\03 - Part 3 - Pursuance, Part 4 - Psalm.wav

Pre-gap length 0:00:02.70

Peak level 99.9 %
Extraction speed 2.9 X
Track quality 100.0 %
Test CRC 6C0D6AE8
Copy CRC 6C0D6AE8
Accurately ripped (confidence 86) [546DFDF3] (AR v2)
Copy OK

All tracks accurately ripped

No errors occurred

End of status report

-- CUETools DB Plugin V2.1.4

[CTDB TOCID: _sPEr.0eXFp8xWflhGaPn1OAaHE-] found
Submit result: _sPEr.0eXFp8xWflhGaPn1OAaHE- has been confirmed
Track | CTDB Status
1 | (107/108) Accurately ripped
2 | (107/108) Accurately ripped, or (1/108) differs in 38 samples @00:00:31
3 | (105/108) Accurately ripped

==== Log checksum E8476046633812A780AD0F5EA8F4A920EDE09418802875FC6FB0FB94863C1C3C ====

DR log


foobar2000 1.2 / Dynamic Range Meter 1.1.1
log date: 2016-05-22 19:29:38

----------------------------------------
Analyzed: John Coltrane / A Love Supreme
----------------------------------------

DR Peak RMS Duration Track
----------------------------------------
DR14 -1.10 dB -17.65 dB 7:48 01-Part 1 - Acknowledgement
DR12 0.00 dB -14.58 dB 7:26 02-Part 2 - Resolution
DR12 0.00 dB -15.71 dB 17:51 03-Part 3 - Pursuance, Part 4 - Psalm
----------------------------------------

Number of tracks: 3
Official DR value: DR13

Samplerate: 44100 Hz
Channels: 2
Bits per sample: 16
Bitrate: 811 kbps
Codec: FLAC
================================================================================


John Coltrane - A Love Supreme (1965) Remastered Reissue 1995


John Coltrane - A Love Supreme (1965) Remastered Reissue 1995


Password: designol

Download link:



Links are Interchangeable - No Password - Single Extraction




Below you can post Comment about Free download John Coltrane - A Love Supreme (1965) Remastered Reissue 1995, full download John Coltrane - A Love Supreme (1965) Remastered Reissue 1995 free from rapidshare, filesonic, fileserve, megaupload, mediafire, hotfile, ftp, direct download. John Coltrane - A Love Supreme (1965) Remastered Reissue 1995 Torrent Download or anything related to the article here. Only English is allowed.
Author: upload113 2-06-2016, 12:48 Comments: 0 Download: 384
Back Print

It's interesting!

It's interesting!

Visitors

Who is online:  users
download:  users
speed:  kb/s

Search cheap airfares!