Download Area!
hot girl striptease sexy nude poledance desktop stripper

Click Now! Download Free Music !

Music Movies Games
Пароль:
RSS SITEMAP.XML

It's interesting

It's interesting!

Click Now!
Start Download Now Torrent Direct Start Download Now Rapid Start Download Now
Perianes, Oramo - Grieg: Piano Concerto, Lyric Pieces (2015)
Perianes, Oramo - Grieg: Piano Concerto, Lyric Pieces (2015)


Perianes, Oramo - Grieg: Piano Concerto, Lyric Pieces (2015)
EAC Rip | Flac (Tracks + cue + log) | 240 MB | MP3 320Kbps CBR | 160 MB | 1 CD | Full Scans
Genre: Classical | Label: Harmonia Mundi | Catalog Number: 902205



"The work of a young musician of 25, the celebrated Piano Concerto by Grieg combines the great Romantic tradition and Norwegian folk music. The 'Lyric Pieces' are among the works that made Grieg world-famous. As in the case of the Piano Concerto, commentators have held that a certain combination of intervals (the вЂ˜Grieg motif') is chiefly responsible for its specific Norwegian quality. For Grieg himself the question of Norwegian culture was a tremendously important one, and he used his international reputation to fight tirelessly for the recognition of Norway as a state."
"Reviews: A recording of Grieg's Piano Concerto in A minor, Op. 16, is hardly a logical choice for a young pianist looking to make a splash, but Spain's Javier Perianes has done just that here. Perianes' performances of the Grieg concerto have gained a good deal of attention in live performances in Britain, and now international audiences can learn what the fuss is about. His reading indeed adds something new to the chain of interpretation. It treats the big flourish at the beginning almost as an introduction: it is delivered with suitable power, but Perianes skillfully uses it as a springboard into a realm of melodic freedom. His Grieg is all Chopin, very little Beethoven, and he holds together a performance that could easily have become diffuse. This is true even in the folk-dance-influenced finale, which in the hands of Perianes and the BBC Symphony under Sakari Oramo takes on a kind of gentle charm. In the group of lyric pieces that rounds out the program Perianes is even more in his element, and he finds a level of seriousness in these works that most performances miss. Beautifully recorded live at the Barbican Centre, this is a cornerstone Grieg recording for the 2010s."
Tracklisting:
Piano Concerto in A minor, Op.16
01. I. Allegro molto moderato (13:41)
02. II. Adagio (6:47)
03. III. Allegro moderato molto e marcato (10:22)
Lyric Pieces
04. Arietta Op. 12: I. Poco andante e sostenuto (1:27)
05. Kanon Op. 38: VIII. Allegretto con moto (5:01)
06. Sommerfugl Op. 43: I. Allegro grazioso (1:54)
07. Ensom vandrer Op. 43: II. Allegretto semplice (2:20)
08. Melodi Op. 47: III. Allegretto (3:40)
09. Trolltog Op. 54: III. Allegro moderato (2:59)
10. Notturno Op. 54: IV. Andante (4:18)
11. Hjemve Op. 57: VI. Andante (4:34)
12. For dine födder Op. 68: III. Poco andante e molto espressivo (3:03)
13. Badnlat Op. 68: V. Allegretto tranquillamente (3:27)
14. Det var engang Op.71: I. Andante con moto - Allegro brioso (4:36)
15. Efterklang Op.71: VII. Tempo di valse (1:53)
Exact Audio Copy V1.1 from 23. June 2015
EAC extraction logfile from 21. August 2015, 16:56
Javier Perianes / Piano Concerto - Lyric Pieces
Used drive : HL-DT-STDVDRAM GH22NS70 Adapter: 1 ID: 0
Read mode : Secure
Utilize accurate stream : Yes
Defeat audio cache : Yes
Make use of C2 pointers : No
Read offset correction
: 667
Overread into Lead-In and Lead-Out : No
Fill up missing offset samples with silence : Yes
Delete leading and trailing silent blocks : No
Null samples used in CRC calculations : Yes
Used interface
: Native Win32 interface for Win NT & 2000
Gap handling
: Appended to previous track
Used output format : User Defined Encoder
Selected bitrate : 1024 kBit/s
Quality : High
Add ID3 tag : No
Command line compressor : C:\Program Files (x86)\Exact Audio Copy\Flac\flac.exe
Additional command line options : -8 -V -T "artist=%artist%" -T "title=%title%" -T "album=%albumtitle%" -T "date=%year%" -T "tracknumber=%tracknr%" -T "genre=%genre%" %source%
TOC of the extracted CD Track | Start | Length | Start sector | End sector
--1 | 0:00.00 | 13:40.64 | 0 | 61563 2 | 13:40.64 | 6:47.22 | 61564 | 92110 3 | 20:28.11 | 10:21.42 | 92111 | 138727 4 | 30:49.53 | 1:26.52 | 138728 | 145229 5 | 32:16.30 | 5:00.55 | 145230 | 167784 6 | 37:17.10 | 1:54.13 | 167785 | 176347 7 | 39:11.23 | 2:20.10 | 176348 | 186857 8 | 41:31.33 | 3:39.60 | 186858 | 203342 9 | 45:11.18 | 2:59.28 | 203343 | 216795
10 | 48:10.46 | 4:17.70 | 216796 | 236140
11 | 52:28.41 | 4:33.59 | 236141 | 256674
12 | 57:02.25 | 3:03.24 | 256675 | 270423
13 | 60:05.49 | 3:27.06 | 270424 | 285954
14 | 63:32.55 | 4:36.37 | 285955 | 306691
15 | 68:09.17 | 1:52.34 | 306692 | 315125
Track 1 Filename C:\ripping\01 - Allegro molto moderato.wav Pre-gap length 0:00:02.00 Peak level 90.5 %
Extraction speed 1.4 X
Track quality 100.0 %
Test CRC 6330F2E4
Copy CRC 6330F2E4
Track not present in AccurateRip database
Copy OK
Track 2 Filename C:\ripping\02 - Adagio.wav Peak level 73.6 %
Extraction speed 1.6 X
Track quality 100.0 %
Test CRC 0659EB3A
Copy CRC 0659EB3A
Track not present in AccurateRip database
Copy OK
Track 3 Filename C:\ripping\03 - Allegro moderato molto e marcato.wav Peak level 96.2 %
Extraction speed 1.9 X
Track quality 100.0 %
Test CRC 7ECE9CCE
Copy CRC 7ECE9CCE
Track not present in AccurateRip database
Copy OK
Track 4 Filename C:\ripping\04 - Arietta.wav Peak level 24.5 %
Extraction speed 1.5 X
Track quality 100.0 %
Test CRC BEAFC763
Copy CRC BEAFC763
Track not present in AccurateRip database
Copy OK
Track 5 Filename C:\ripping\05 - Kanon.wav Peak level 67.7 %
Extraction speed 1.9 X
Track quality 100.0 %
Test CRC AF903807
Copy CRC AF903807
Track not present in AccurateRip database
Copy OK
Track 6 Filename C:\ripping\06 - Sommerfugl.wav Peak level 43.3 %
Extraction speed 1.3 X
Track quality 99.9 %
Test CRC 9874AF6C
Copy CRC 9874AF6C
Track not present in AccurateRip database
Copy OK
Track 7 Filename C:\ripping\07 - Ensom vandrer.wav Peak level 35.4 %
Extraction speed 1.8 X
Track quality 100.0 %
Test CRC A2A22813
Copy CRC A2A22813
Track not present in AccurateRip database
Copy OK
Track 8 Filename C:\ripping\08 - Melodi.wav Peak level 65.8 %
Extraction speed 1.5 X
Track quality 99.9 %
Test CRC B7405F87
Copy CRC B7405F87
Track not present in AccurateRip database
Copy OK
Track 9 Filename C:\ripping\09 - Trolltog.wav Peak level 79.1 %
Extraction speed 2.1 X
Track quality 100.0 %
Test CRC C3FD939A
Copy CRC C3FD939A
Track not present in AccurateRip database
Copy OK
Track 10 Filename C:\ripping\10 - Notturno.wav Peak level 49.5 %
Extraction speed 1.9 X
Track quality 99.9 %
Test CRC E2A62268
Copy CRC E2A62268
Track not present in AccurateRip database
Copy OK
Track 11 Filename C:\ripping\11 - Hjemve.wav Peak level 37.2 %
Extraction speed 2.3 X
Track quality 100.0 %
Test CRC 5AF23C4D
Copy CRC 5AF23C4D
Track not present in AccurateRip database
Copy OK
Track 12 Filename C:\ripping\12 - For dine födder.wav Peak level 83.5 %
Extraction speed 2.2 X
Track quality 100.0 %
Test CRC C0088BED
Copy CRC C0088BED
Track not present in AccurateRip database
Copy OK
Track 13 Filename C:\ripping\13 - Badnlat.wav Peak level 27.7 %
Extraction speed 2.2 X
Track quality 100.0 %
Test CRC 95F9FC3F
Copy CRC 95F9FC3F
Track not present in AccurateRip database
Copy OK
Track 14 Filename C:\ripping\14 - Det var engang.wav Peak level 87.4 %
Extraction speed 2.4 X
Track quality 100.0 %
Test CRC C8251F9E
Copy CRC C8251F9E
Track not present in AccurateRip database
Copy OK
Track 15 Filename C:\ripping\15 - Efterklang.wav Peak level 39.4 %
Extraction speed 2.2 X
Track quality 100.0 %
Test CRC A7EA7FEF
Copy CRC A7EA7FEF
Track not present in AccurateRip database
Copy OK
None of the tracks are present in the AccurateRip database
No errors occurred
End of status report
- CUETools DB Plugin V2.1.6
[CTDB TOCID: Q0wGe8ju.4UWclRZgJC7rNkh62o-] disk not present in database
Submit result: Q0wGe8ju.4UWclRZgJC7rNkh62o- has been uploaded
==== Log checksum 83969817C28EE1A084AB54591C186090A2212DF662E655DEFFDA318E059CEEE5 ====
rapidgator.net
http://rapidgator.net/file/c3f7035449bed7f197173a539a91248f/2cua8.soaxbeflac.rar.html
http://rapidgator.net/file/5dff7d12f6540c12b25308c574304c83/2cua8.soaxbemp3.rar.html

alfafile.net
http://alfafile.net/file/p33/2cua8.soaxbeflac.rar
http://alfafile.net/file/p3J/2cua8.soaxbemp3.rar




Below you can post Comment about Free download Perianes, Oramo - Grieg: Piano Concerto, Lyric Pieces (2015), full download Perianes, Oramo - Grieg: Piano Concerto, Lyric Pieces (2015) free from rapidshare, filesonic, fileserve, megaupload, mediafire, hotfile, ftp, direct download. Perianes, Oramo - Grieg: Piano Concerto, Lyric Pieces (2015) Torrent Download or anything related to the article here. Only English is allowed.
Author: myhat001 29-12-2015, 23:20 Comments: 0 Download: 289
Back Print

It's interesting!

It's interesting!

Visitors

Who is online:  users
download:  users
speed:  kb/s

Search cheap airfares!