Download Area!
hot girl striptease sexy nude poledance desktop stripper

Click Now! Download Free E-books !

Music Movies Games
Пароль:
RSS SITEMAP.XML

It's interesting

It's interesting!

Click Now!
Start Download Now Torrent Direct Start Download Now Rapid Start Download Now
Classic Albums Still Got The Blues (2018)

Classic Albums Still Got The Blues (2018)
HDRip | English | MP4 | 1920 x 1080 | AVC ~1500 kbps | 25 fps
AAC 128 Kbps 48.0 KHz | 2 channels | 06:32:44 | 4.52 GB
Genre: eLearning Video / Guitar lesson

Gary Moore's most successful album both in sales and chart positions-1990s 'Still Got the Blues' is a masterclass in rock and blues guitar playing. Spawning the hit songs such as the title track, "Still Got The Blues", "Oh, Pretty Woman" and "Walking By Myself" that remained constant in Moore's setlist throughout his career, the album is jam-packed withkiller riffs, soulful turnarounds and blistering solos.

Learn to play the following:

* Moving On
* Oh Pretty Woman
* Walking By Myself
* Still Got The Blues (ForYou)
* Texas Strut
* King Of The Blues
* As The Years Go Passing By
* Midnight Blues
* All Your Love
* Stop Messin' Around
* That Kind Of Woman

In this course, LickLibrary veteran, Jamie Humphries teaches you the highlights of each song from this masterful and original blues-rock record one phrase at a time and explores the powerful and sometimes subtle trademarks contained within Gary Moore's legendary phrasing

also You can find my other great:
https://rapu.world/search/?category_slug=&query=Guitar&language=7&age=&author=ParRus&search=1


General
Complete name Outro Phrases.mp4
Format : MPEG-4
Codec ID : M4V (isom/avc1/iso6/M4A /M4V /mp42)
File size : 69.0 MiB
Duration : 5 min 56 s
Overall bit rate mode : Variable
Overall bit rate : 1 625 kb/s
Encoded date : UTC 2018-03-20 23:13:16
Tagged date : UTC 2018-03-20 23:13:16

Video
ID : 1
Format : AVC
Format/Info : Advanced Video Codec
Format profile : High@L4
Format settings : CABAC / 4 Ref Frames
Format settings, CABAC : Yes
Format settings, RefFrames : 4 frames
Codec ID : avc1
Codec ID/Info : Advanced Video Coding
Duration : 5 min 56 s
Bit rate : 1 500 kb/s
Maximum bit rate : 3 137 kb/s
Width : 1 920 pixels
Height : 1 080 pixels
Display aspect ratio : 16:9
Frame rate mode : Constant
Frame rate : 25.000 FPS
Color space : YUV
Chroma subsampling : 4:2:0
Bit depth : 8 bits
Scan type : Progressive
Bits/(Pixel*Frame) : 0.029
Stream size : 63.4 MiB (92%)
Writing library : x264 core 148 r2744kMod b97ae06
Encoding settings : cabac=1 / ref=4 / deblock=1:0:0 / analyse=0x3:0x113 / me=hex / subme=8 / psy=1 / fade_compensate=0.00 / psy_rd=1.00:0.00 / mixed_ref=1 / me_range=16 / chroma_me=1 / trellis=2 / 8x8dct=1 / cqm=0 / deadzone=21,11 / fast_pskip=1 / chroma_qp_offset=-2 / threads=12 / lookahead_threads=2 / sliced_threads=0 / nr=0 / decimate=1 / interlaced=0 / bluray_compat=0 / constrained_intra=0 / bframes=3 / b_pyramid=2 / b_adapt=1 / b_bias=0 / direct=3 / weightb=1 / open_gop=0 / weightp=2 / keyint=250 / keyint_min=25 / scenecut=40 / intra_refresh=0 / rc_lookahead=50 / rc=2pass / mbtree=1 / bitrate=1500 / ratetol=1.0 / qcomp=0.60 / qpmin=0 / qpmax=69 / qpstep=4 / cplxblur=20.0 / qblur=0.5 / ip_ratio=1.40 / aq=1:1.00
Encoded date : UTC 2018-03-20 23:13:16
Tagged date : UTC 2018-03-20 23:13:17

Audio
ID : 2
Format : AAC
Format/Info : Advanced Audio Codec
Format profile : LC
Codec ID : mp4a-40-2
Duration : 5 min 56 s
Bit rate mode : Variable
Bit rate : 128 kb/s
Maximum bit rate : 145 kb/s
Channel(s) : 2 channels
Channel positions : Front: L R
Sampling rate : 48.0 kHz
Frame rate : 46.875 FPS (1024 SPF)
Compression mode : Lossy
Stream size : 5.42 MiB (8%)
Encoded date : UTC 2018-03-20 23:08:35
Tagged date : UTC 2018-03-20 23:13:17

Screenshots


Classic Albums Still Got The Blues (2018)

Classic Albums Still Got The Blues (2018)

Classic Albums Still Got The Blues (2018)


Download link:

uploadgig_com:
http://uploadgig.com/file/download/0a36f469d9C258B0/haqve.Classic.Albums.Still.Got.The.Blues.2018.part1.rar
http://uploadgig.com/file/download/fF5Cc6fD452e1e27/haqve.Classic.Albums.Still.Got.The.Blues.2018.part2.rar
http://uploadgig.com/file/download/268Ff01c70f5764b/haqve.Classic.Albums.Still.Got.The.Blues.2018.part3.rar
http://uploadgig.com/file/download/3b0c320D477A1A1b/haqve.Classic.Albums.Still.Got.The.Blues.2018.part4.rar
http://uploadgig.com/file/download/64C4a9f00D2de3e1/haqve.Classic.Albums.Still.Got.The.Blues.2018.part5.rar
http://uploadgig.com/file/download/35Baf4f1Edfb31F3/haqve.Classic.Albums.Still.Got.The.Blues.2018.part6.rar
http://uploadgig.com/file/download/1b5Dffd7b75e2A5C/haqve.Classic.Albums.Still.Got.The.Blues.2018.part7.rar

rapidgator_net:
https://rapidgator.net/file/44a1fbae3174ca674b88b288314f2c07/haqve.Classic.Albums.Still.Got.The.Blues.2018.part1.rar.html
https://rapidgator.net/file/525a08db969b5fca00765650541bbe69/haqve.Classic.Albums.Still.Got.The.Blues.2018.part2.rar.html
https://rapidgator.net/file/a7f2ebeb3bda5529b35cda58d78aee4b/haqve.Classic.Albums.Still.Got.The.Blues.2018.part3.rar.html
https://rapidgator.net/file/cf00c8dfcb07f1d25dd729f3758985ce/haqve.Classic.Albums.Still.Got.The.Blues.2018.part4.rar.html
https://rapidgator.net/file/c21d76378fec1a1568e0c2b4abcd668b/haqve.Classic.Albums.Still.Got.The.Blues.2018.part5.rar.html
https://rapidgator.net/file/8c56db54e1f1bb954f75f2ece6e53bfb/haqve.Classic.Albums.Still.Got.The.Blues.2018.part6.rar.html
https://rapidgator.net/file/52fd997695d6335c7196eff84175d81e/haqve.Classic.Albums.Still.Got.The.Blues.2018.part7.rar.html

nitroflare_com:
http://nitroflare.com/view/950D6F73FEC1502/haqve.Classic.Albums.Still.Got.The.Blues.2018.part1.rar
http://nitroflare.com/view/651CB6152CF2619/haqve.Classic.Albums.Still.Got.The.Blues.2018.part2.rar
http://nitroflare.com/view/6A707971D6A20A4/haqve.Classic.Albums.Still.Got.The.Blues.2018.part3.rar
http://nitroflare.com/view/008762124B45E4A/haqve.Classic.Albums.Still.Got.The.Blues.2018.part4.rar
http://nitroflare.com/view/90A7612D152B11F/haqve.Classic.Albums.Still.Got.The.Blues.2018.part5.rar
http://nitroflare.com/view/9BBF87EFB65174E/haqve.Classic.Albums.Still.Got.The.Blues.2018.part6.rar
http://nitroflare.com/view/3450055A7C5665A/haqve.Classic.Albums.Still.Got.The.Blues.2018.part7.rar


Links are Interchangeable - No Password - Single Extraction




Below you can post Comment about Free download Classic Albums Still Got The Blues (2018), full download Classic Albums Still Got The Blues (2018) free from rapidshare, filesonic, fileserve, megaupload, mediafire, hotfile, ftp, direct download. Classic Albums Still Got The Blues (2018) Torrent Download or anything related to the article here. Only English is allowed.
Author: mitsumi 2-01-2019, 09:02 Comments: 0 Download: 98
Back Print

It's interesting!

It's interesting!

Visitors

Who is online:  users
download:  users
speed:  kb/s

Search cheap airfares!