Download Area!
hot girl striptease sexy nude poledance desktop stripper

Click Now! Download Free E-books !

Music Movies Games
Пароль:
RSS SITEMAP.XML

It's interesting

It's interesting!

Click Now!
Start Download Now Torrent Direct Start Download Now Rapid Start Download Now
Music Of Woody Guthrie Arranged for Fingerstyle Guitar taught by Fred Sokolow

Music Of Woody Guthrie Arranged for Fingerstyle Guitar
DVD5 | English | VIDEO_TS | 720 x 480 | MPEG2 ~5040 kbps | 29.970 fps
AC-3 192 Kbps 48.0 KHz | 2 channels | 01:41:00 | 3.87 GB
Genre: eLearning Video / Guitar lesson

Woody Guthrie's songs gave direction and purpose to a generation of songwriters in the 1950s and 1960s, and they continue to move millions of people today. This Land Is Your Land has become an alternate national anthem!

In this 101 minute lesson, Fred Sokolow teaches you how to play backup and solos to ten of Woody's best known songs. It's a great lesson in fingerpicking, as well as an intro to some moving, classic tunes from America's legendary poet/songwriter. Fred makes it easy to learn, with split-screen, slowed down versions of the songs and helpful hints about the licks and picking styles.

also You can find my other great:
https://rapu.world/search/?category_slug=&query=Guitar&language=7&age=&author=ParRus&search=1


General
Complete name : VTS_02_1.VOB
Format : MPEG-PS
File size : 1 024 MiB
Duration : 26 min 48 s
Overall bit rate mode : Variable
Overall bit rate : 5 339 kb/s

Video
ID : 224 (0xE0)
Format : MPEG Video
Format version : Version 2
Format profile : Main@Main
Format settings : CustomMatrix / BVOP
Format settings, BVOP : Yes
Format settings, Matrix : Custom
Format settings, GOP : M=3, N=15
Format settings, picture structure : Frame
Duration : 26 min 48 s
Bit rate mode : Variable
Bit rate : 5 040 kb/s
Maximum bit rate : 6 023 kb/s
Width : 720 pixels
Height : 480 pixels
Display aspect ratio : 16:9
Frame rate : 29.970 (30000/1001) FPS
Standard : NTSC
Color space : YUV
Chroma subsampling : 4:2:0
Bit depth : 8 bits
Scan type : Interlaced
Scan order : Top Field First
Compression mode : Lossy
Bits/(Pixel*Frame) : 0.487
Time code of first frame : 01:00:28;13
Time code source : Group of pictures header
GOP, Open/Closed : Closed
Stream size : 967 MiB (94%)
Color primaries : BT.601 NTSC
Transfer characteristics : BT.601
Matrix coefficients : BT.601

Audio
ID : 189 (0xBD)-128 (0x80)
Format : AC-3
Format/Info : Audio Coding 3
Muxing mode : DVD-Video
Duration : 26 min 48 s
Bit rate mode : Constant
Bit rate : 192 kb/s
Channel(s) : 2 channels
Channel positions : Front: L R
Sampling rate : 48.0 kHz
Frame rate : 31.250 FPS (1536 SPF)
Bit depth : 16 bits
Compression mode : Lossy
Stream size : 36.8 MiB (4%)
Service kind : Complete Main

Menu

Screenshots


Music Of Woody Guthrie Arranged for Fingerstyle Guitar taught by Fred Sokolow

Music Of Woody Guthrie Arranged for Fingerstyle Guitar taught by Fred Sokolow

Music Of Woody Guthrie Arranged for Fingerstyle Guitar taught by Fred Sokolow


Download link:

uploadgig_com:
https://uploadgig.com/file/download/e5fc493aba9FADf4/dx7tg.Music.Of.Woody.Guthrie.Arranged.for.Fingerstyle.Guitar.taught.by.Fred.Sokolow.part01.rar
https://uploadgig.com/file/download/be44fa43e14Ea323/dx7tg.Music.Of.Woody.Guthrie.Arranged.for.Fingerstyle.Guitar.taught.by.Fred.Sokolow.part02.rar
https://uploadgig.com/file/download/f8c97c41A739ff06/dx7tg.Music.Of.Woody.Guthrie.Arranged.for.Fingerstyle.Guitar.taught.by.Fred.Sokolow.part03.rar
https://uploadgig.com/file/download/b5730aC2Fa6083d5/dx7tg.Music.Of.Woody.Guthrie.Arranged.for.Fingerstyle.Guitar.taught.by.Fred.Sokolow.part04.rar
https://uploadgig.com/file/download/420a692604497833/dx7tg.Music.Of.Woody.Guthrie.Arranged.for.Fingerstyle.Guitar.taught.by.Fred.Sokolow.part05.rar
https://uploadgig.com/file/download/dd6Dc337B711a7d1/dx7tg.Music.Of.Woody.Guthrie.Arranged.for.Fingerstyle.Guitar.taught.by.Fred.Sokolow.part06.rar
https://uploadgig.com/file/download/e980e40c65871fC8/dx7tg.Music.Of.Woody.Guthrie.Arranged.for.Fingerstyle.Guitar.taught.by.Fred.Sokolow.part07.rar
https://uploadgig.com/file/download/519494Ea14f867d2/dx7tg.Music.Of.Woody.Guthrie.Arranged.for.Fingerstyle.Guitar.taught.by.Fred.Sokolow.part08.rar

rapidgator_net:
https://rapidgator.net/file/aa911ff2bfad80dbf310e976d2f55f07/dx7tg.Music.Of.Woody.Guthrie.Arranged.for.Fingerstyle.Guitar.taught.by.Fred.Sokolow.part01.rar.html
https://rapidgator.net/file/bed9a19b03d36f971249ed1ed17d094b/dx7tg.Music.Of.Woody.Guthrie.Arranged.for.Fingerstyle.Guitar.taught.by.Fred.Sokolow.part02.rar.html
https://rapidgator.net/file/8a14a367f38738c1c48df1997d71c079/dx7tg.Music.Of.Woody.Guthrie.Arranged.for.Fingerstyle.Guitar.taught.by.Fred.Sokolow.part03.rar.html
https://rapidgator.net/file/560bde7ad322527b16e36c303f380868/dx7tg.Music.Of.Woody.Guthrie.Arranged.for.Fingerstyle.Guitar.taught.by.Fred.Sokolow.part04.rar.html
https://rapidgator.net/file/909d5129b809fdb9d26cac75acea9735/dx7tg.Music.Of.Woody.Guthrie.Arranged.for.Fingerstyle.Guitar.taught.by.Fred.Sokolow.part05.rar.html
https://rapidgator.net/file/e90f40b38e2ce66098b4a1fbe83d528f/dx7tg.Music.Of.Woody.Guthrie.Arranged.for.Fingerstyle.Guitar.taught.by.Fred.Sokolow.part06.rar.html
https://rapidgator.net/file/73ebe65e67291539f1b49b656b8b70a2/dx7tg.Music.Of.Woody.Guthrie.Arranged.for.Fingerstyle.Guitar.taught.by.Fred.Sokolow.part07.rar.html
https://rapidgator.net/file/06af9949e09fd78488143badc9c68e71/dx7tg.Music.Of.Woody.Guthrie.Arranged.for.Fingerstyle.Guitar.taught.by.Fred.Sokolow.part08.rar.html

nitroflare_com:
http://nitroflare.com/view/674A96A281934E4/dx7tg.Music.Of.Woody.Guthrie.Arranged.for.Fingerstyle.Guitar.taught.by.Fred.Sokolow.part01.rar
http://nitroflare.com/view/7303638198109FD/dx7tg.Music.Of.Woody.Guthrie.Arranged.for.Fingerstyle.Guitar.taught.by.Fred.Sokolow.part02.rar
http://nitroflare.com/view/D8CA4E27142CB6A/dx7tg.Music.Of.Woody.Guthrie.Arranged.for.Fingerstyle.Guitar.taught.by.Fred.Sokolow.part03.rar
http://nitroflare.com/view/C5A8636EE1AC40A/dx7tg.Music.Of.Woody.Guthrie.Arranged.for.Fingerstyle.Guitar.taught.by.Fred.Sokolow.part04.rar
http://nitroflare.com/view/B1B2254BACCE558/dx7tg.Music.Of.Woody.Guthrie.Arranged.for.Fingerstyle.Guitar.taught.by.Fred.Sokolow.part05.rar
http://nitroflare.com/view/700CF395EBD0452/dx7tg.Music.Of.Woody.Guthrie.Arranged.for.Fingerstyle.Guitar.taught.by.Fred.Sokolow.part06.rar
http://nitroflare.com/view/3D77CFDF6E4E4B8/dx7tg.Music.Of.Woody.Guthrie.Arranged.for.Fingerstyle.Guitar.taught.by.Fred.Sokolow.part07.rar
http://nitroflare.com/view/2FD708637FC24C8/dx7tg.Music.Of.Woody.Guthrie.Arranged.for.Fingerstyle.Guitar.taught.by.Fred.Sokolow.part08.rar


Links are Interchangeable - No Password - Single Extraction




Below you can post Comment about Free download Music Of Woody Guthrie Arranged for Fingerstyle Guitar taught by Fred Sokolow, full download Music Of Woody Guthrie Arranged for Fingerstyle Guitar taught by Fred Sokolow free from rapidshare, filesonic, fileserve, megaupload, mediafire, hotfile, ftp, direct download. Music Of Woody Guthrie Arranged for Fingerstyle Guitar taught by Fred Sokolow Torrent Download or anything related to the article here. Only English is allowed.
Author: mitsumi 28-12-2018, 03:16 Comments: 0 Download: 159
Back Print

It's interesting!

It's interesting!

Visitors

Who is online:  users
download:  users
speed:  kb/s

Search cheap airfares!